Convertir a MPEG

Imagen de jplinux
0 puntos

Hola,

Tengo un archivo capturado de una cámara mini DV. Lo he pasado a AVI pero lo que realmente me interesa es pasarlo a formato MPEG y en concreto reducir el tamaño a 320x240 para ponerlo en YouTube, pero no lo consigo. He probado con Kino y con Avidemux pero sin éxito. Por lo que he leído en Google, tiene que ser posible pero ¿cómo? ¿Alguien puede orientarme?

Quiero intentarlo todo antes que recurrir a Windows, donde tengo que reconocer que realmente era muy fácil hacerlo. Seguramente será muy fácil también en Linux pero obviamente debe haber algo que no estoy haciendo bien.

Gracias de antemano!

Imagen de Danielito
+1
0
-1

Los terminos de la búsqueda

 convertir a mpge linux

El resultado

http://www.babilonics.com/node/2175 (2°)

Lo pego por si se pierde la fuente y porque me parece interesante

convertir flv (flash Video) a mpg, avi, etc para Linux (debian)

Primero el ffmpeg (esto solo para debian)

apt-get install ffmpeg

Ahora ya podemos convertir el video

ffmpeg -i Video.flv -ab 56 -ar 22050 -b 500 -s 320x240 Video.mpg

-b bitrate: set the video bitrate in kbit/s (default = 200 kb/s)
-ab bitrate: set the audio bitrate in kbit/s (default = 64)
-ar sample rate: set the audio samplerate in Hz (default = 44100 Hz)
-s size: set frame size. The format is WxH (default 160x128)

 

+1
0
-1
Imagen de jplinux
+1
0
-1

Pues muchísimas gracias.

Voy a probarlo enseguida porque tengo faena por delante que terminar y muy poco tiempo que perder. Además, me daba cierto reparo tener que recurrir a Windows ahora que llevo algunos meses sin usarlo...

 

 

+1
0
-1
Imagen de pepitux
+1
0
-1

Después de estar un momento codificando un video flv (no es de youtube) me sale el siguiente error:

Fallo de segmentacióne= 1526kB time=32.9 bitrate= 379.8kbits/s

:(

¿A que podría deberse?

 

~~~~~~~~~~~~~~~~~~~~~~~~~~~~

P: Tengo problemas con mi máquina en windows, ¿me puede ayudar?

R: claro, tira esa basura de M$ e instala Ubuntu

+1
0
-1

 

~~~~~~~~~~~~~~~~~~~~~~~~~~~~
P: Tengo problemas con mi máquina en windows, ¿me puede ayudar?
R: claro, tira esa basura de M$ e instala Ubuntu

Imagen de s3rgio
+1
0
-1

prueba con el programa vlc, y vas a archivo/asistente/transcodificar,eliges tu archivo y luego pones al que quieres exportarlo, y ya esta. yo lo hago para pasar de flv a mpeg, pero supongo que avi tambien lo leera. un saludo.

+1
0
-1
Imagen de pepitux
+1
0
-1

He repetido varias veces el proceso cambiando los parámetros, y cada vez que le doy al botón finish del asistente me sale, en la ventana del VLC, la barra de reproducción moviendose a bastante velocidad para lo que dura el vídeo (unos 11 minutos). Una vez que llega al final, desaparece y ya no ocurrre nada más.

El fichero destino es creado, pero con un tamaño ínfimo (0 u 8 B). :(

~~~~~~~~~~~~~~~~~~~~~~~~~~~~

P: Tengo problemas con mi máquina en windows, ¿me puede ayudar?

R: claro, tira esa basura de M$ e instala Ubuntu

+1
0
-1

 

~~~~~~~~~~~~~~~~~~~~~~~~~~~~
P: Tengo problemas con mi máquina en windows, ¿me puede ayudar?
R: claro, tira esa basura de M$ e instala Ubuntu

Imagen de s3rgio
+1
0
-1

Bueno, tarde un poco en contestar, jeje, marca las casillas "transcodificar video" y "transcodificar audio" en video marca mpeg1 y audio mp3 por ejemplo. saludos

+1
0
-1
Imagen de pepitux
+1
0
-1

Este es el mensaje completo que me devuelve el ffmpeg al intentar convertir a .avi o .mpeg

Seems that stream 0 comes from film source: 1000.00 (1000/1) -> 30.00 (30/1)
Input #0, flv, from 'fichero.flv':
Duration: 00:11:08.9, bitrate: N/A
Stream #0.0: Video: flv, yuv420p, 640x480, 1000.00 fps
Stream #0.1: Audio: mp3, 22050 Hz, mono
Output #0, avi, to 'fichero.avi':
Stream #0.0: Video: mpeg4, yuv420p, 640x480, 30.00 fps, q=2-31, 200 kb/s
Stream #0.1: Audio: mp2, 22050 Hz, mono, 64 kb/s
Stream mapping:
Stream #0.0 -> #0.0
Stream #0.1 -> #0.1
Press [q] to stop encoding
Fallo de segmentacióne= 470kB time=8.9 bitrate= 430.7kbits/s

El vídeo está sacado de esta página. A ver si alguien consigue convertirlo a otro formato y me dice como lo ha hecho.

Salu2.

~~~~~~~~~~~~~~~~~~~~~~~~~~~~

P: Tengo problemas con mi máquina en windows, ¿me puede ayudar?

R: claro, tira esa basura de M$ e instala Ubuntu

+1
0
-1

 

~~~~~~~~~~~~~~~~~~~~~~~~~~~~
P: Tengo problemas con mi máquina en windows, ¿me puede ayudar?
R: claro, tira esa basura de M$ e instala Ubuntu

Imagen de cousteau
+1
0
-1

Si todo falla, y el archivo no es muy grande y tienes una conexión a Internet rapidilla, antes de usar Windows (con el que dudo que consigas nada) prueba con el Media Convert, que es un conversor gratis on-line: tú envías el archivo, eliges el formato al que lo quieres convertir, y en un rato te aparece un enlace con el archivo convertido; lo descargas y listo.

+1
0
-1

«E: dpkg was interrupted, you must manually run 'dpkg --configure -a' to correct the problem» significa que dpkg se ha interrumpido y que tienes que ejecutar "sudo dpkg --configure -a" para corregir el problema.
Imagen de furtaxi
+1
0
-1

Aquí tienes más info.

Cortesía de Elgatogordo. :)

Gracias a ello, ya no usaré wmv convirtiendo con el VLC para mis vídeos... 

Saludos,

Roberto.

Mi página: www.vigonews.es

Lee y cumple las Normas. Busca antes de preguntar.
Cuando visites un hilo, pulsa marcar para informar a los Moderadores de su relevancia.

+1
0
-1

Mi web : www.vigovideo.es
Buscar es más rápido que esperar una respuesta.

Imagen de Rayan
+1
0
-1

Yo hice lo que tu dices y me sale esto aunque solo he podido tranformar un video los demas me sale lo mismo...

 

FFmpeg version SVN-rUNKNOWN, Copyright (c) 2000-2007 Fabrice Bellard, et al.
  configuration: --enable-gpl --enable-pp --enable-swscaler --enable-pthreads --enable-libvorbis --enable-libtheora --enable-libogg --enable-libgsm --enable-dc1394 --disable-debug --enable-shared --prefix=/usr
  libavutil version: 1d.49.3.0
  libavcodec version: 1d.51.38.0
  libavformat version: 1d.51.10.0
  built on Jun  3 2007 20:59:25, gcc: 4.1.3 20070528 (prerelease) (Ubuntu 4.1.2-9ubuntu2)
Enrique: I/O error occured
Usually that means that input file is truncated and/or corrupted.
 

 

SE LIBRE... SE UBUNTU...

+1
0
-1

SE LIBRE... SE UBUNTU...

Imagen de furtaxi
+1
0
-1

Usually that means that input file is truncated and/or corrupted.

De todas formas, si te va la multimedia, haz todo lo que te dicen aquí:

http://tuxapuntes.com/tux/content/view/551/86/

Puede que tengas conflictos con los códecs, con todo ésto, se arreglan.

Recuerda leer el comentario número 8, es para la llave pública. 

Edito: visita también éste hilo:

http://www.ubuntu-es.org/index.php?q=node/72966

Saludos,

Roberto.

Mi página: www.vigonews.es

Lee y cumple las Normas. Busca antes de preguntar.
Cuando visites un hilo, pulsa marcar para informar a los Moderadores de su relevancia.

+1
0
-1

Mi web : www.vigovideo.es
Buscar es más rápido que esperar una respuesta.

Imagen de sdf
+1
0
-1

Rayan,

Si lo que quieres es bajar vídeos desde Youtube, como creo que he entendido en el otro hilo tuyo, puedes emplear PyTube. Lo instalas con Synaptic, funciona bién, permite diferentes formatos de salida y es comodo.

Saludos. 

 

+1
0
-1
Imagen de Rayan
+1
0
-1

es excelente la plicacion de verdad me funciono muy bien

 

 

SE LIBRE... SE UBUNTU...

+1
0
-1

SE LIBRE... SE UBUNTU...