pasar de m2ts a avi

Imagen de nicolasjsg
0 puntos

Buenas, alguien conoce alguna aplicación que me permita pasar del formato m2ts a avi,
He buscado por la web, pero todos los programas que encuentro són para windows.

Si alguién tiene idea sería de agradecer

Saludos

Imagen de cousteau
+1
0
-1

No había oído hablar de ese formato... pero se me ocurre que puedes probar con mencoder (por línea de comandos aunque bastante fácil de usar), ffmpeg (también por comandos pero algo más complicado) o winff (interfaz gráfica para ffmpeg). A lo mejor Avidemux también ayuda.

+1
0
-1

«E: dpkg was interrupted, you must manually run 'dpkg --configure -a' to correct the problem» significa que dpkg se ha interrumpido y que tienes que ejecutar "sudo dpkg --configure -a" para corregir el problema.
Imagen de ffp
+1
0
-1

Hola,
Yo lo haría en 2 fases:
con MKVMERGE GUI, lo pasaría a .mkv (es muy rápido)
Y finalmente con Avidemux lo pasaria a avi.

Funciona perfectamente.

+1
0
-1

Un saludo

ffp

Imagen de Gabriel_M
+1
0
-1

Instala estas aplicaciones:
sudo su
apt-get install build-essential libxvidcore4-dev libfaad-dev libfaac-dev libmp3lame-dev subversion ffmpeg

Averigua los parámetros del archivo
ffmpeg -i archivo.m2ts
Te dará una salida parecida a esta

Input #0, mpegts, from 'archivo.m2ts':
Duration: 00:00:37.56, start: 1.000067, bitrate: 9440 kb/s
Program 1
Stream #0.0[0x1011]: Video: h264, yuv420p, 1440x1080 [PAR 4:3 DAR 16:9], 59.94 tbr, 90k tbn, 59.94 tbc
Stream #0.1[0x1100]: Audio: ac3, 48000 Hz, 5.1, s16, 448 kb/s
Asi sabes que:
video bitrate = 9440 kb/s
pixel aspect ratio[PAR]: 4:3
display aspect ration[DAR]: 16:9
audio bitrate = 448kb/s

Convierte el archivo
ffmpeg -i archivo.m2ts -vcodec libxvid -b 18000k -acodec libmp3lame -ac 2 -ab 320k -deinterlace -s 1440x1080 archivo.avi

Comprueba si se convirtió correctamente

ffmpeg -i archivo.avi

Input #0, avi, from 'archivo.avi':
Duration: 00:00:19.08, start: 0.000000, bitrate: 9564 kb/s
Stream #0.0: Video: mpeg4, yuv420p, 1440x1080 [PAR 4:3 DAR 16:9], 59.94 tbr, 59.94 tbn, 59.94 tbc
Stream #0.1: Audio: mp3, 48000 Hz, stereo, s16, 320 kb/s

+1
0
-1
Imagen de furtaxi
+1
0
-1

Supongo que será un variación del .m2t, el que usa mi cámara de vídeo HDV Canon HV20.

A su vez, éste es un simple mpeg, con algunos parámetros y la extensión cambiada. Muy probablemente, con renombrar el archivo a .mpg, ya puedas reproducirlo y transcodificarlo sin problemas.

Ahora bien, tienes un excelente programa, llamado EKD, que trabaja perfectamente con innumerables formatos (pero para que acepte el archivo de entrada .m2t, es necesario renombrarlo a .mpg), con lo que podrás convertirlo a lo que quieras.

Yo lo uso casi a diario, y la velocidad de trabajo y la calidad final, son impresionantes.

http://ekd.tuxfamily.org/

+1
0
-1

Mi web : www.vigovideo.es
Buscar es más rápido que esperar una respuesta.

Imagen de cousteau
+1
0
-1

Yo diría que .m2t de hecho es una "abreviatura" de 3 letras de .m2ts (igual que .mpg de .mpeg o .jpg de .jpeg). Son básicamente mpeg con más información usados en BluRay o algo así (más info en Wikipedia)

+1
0
-1

«E: dpkg was interrupted, you must manually run 'dpkg --configure -a' to correct the problem» significa que dpkg se ha interrumpido y que tienes que ejecutar "sudo dpkg --configure -a" para corregir el problema.
Imagen de anjhel.urbano
+1
0
-1

hola, no se si tu problema sea el mismo q el mio, pero yo no keria cambiar los formatos, xq en linux la verdad hay pocas posibilidades de cambiar los formatos, asi q mejor busque la manera de poder reproducir archivos m2ts, y ps me encontré con esto, q es mejor instalarte el programa VLC, q reproduce ese tipo de archivo. lo encuentras en el centro de software de ubuntu, o por terminal puedes colocar:

sudo apt-get install vlc

ehm... dificil no?? :P pero si obligatoriamente kieres convertirlo, ps ya no sigas leyendo mi comentario... jeje...

+1
0
-1
Imagen de cousteau
+1
0
-1

pero si obligatoriamente kieres convertirlo, ps ya no sigas leyendo mi comentario...

Muy útil esto al final del comentario, juas.

Personalmente he probado VLC y no me gusta mucho porque consume bastantes recursos y mi ordenador no es muy potente; prefiero algo más ligero como gnome-mplayer. Ambos están bastante bien y leen prácticamente todos los formatos existentes, así que supongo que también soportará m2ts. Tengo los dos instalados por si acaso (gnome-mplayer no me va muy bien con webm, aunque puede que versiones más nuevas lo lean bien).

+1
0
-1

«E: dpkg was interrupted, you must manually run 'dpkg --configure -a' to correct the problem» significa que dpkg se ha interrumpido y que tienes que ejecutar "sudo dpkg --configure -a" para corregir el problema.