[solucionado]convertidor de avi a mpeg-2

Imagen de volgar
0 puntos

Saludos .
En windows usaba el video converter pero ahora para ubuntu no veo ninguno que tenga el mpeg-2 . Me estoy jugando seguir con ubuntu .
Gracias .

Imagen de Gabriel_M
+1
0
-1

Hola vol....:

Puedes hacerlo con ffmpeg

ffmpeg -i archivo.avi -y -f vcd -vcodec mpeg1video -map 0.0:0.0 -b 1150 -s 352x240 -r 29.97 -g 12 -qmin 3 -qmax 13 -hq -acodec mp2 -ab 224 -ar 44100 -ac 2 -map 0.1:0.1 archivo.mpg

Saludos.
Gabriel.



Solo doy soporte para Ubuntu: Un sistema operativo superior, moderno, optimizado, seguro, evolutivo y completo.
+1
0
-1
Imagen de furtaxi
+1
0
-1

Es algún comentario fuera de tono... Hay que buscar un poco, antes de preguntar y amenazar con volver a Windows, que nos importa muy poco...

Tu solución es winff, lo tienes en Synaptic.

Muy fácil de usar, localizas el archivo origen con añadir, seleccionas el tipo de códec, convertir, y ya te lo hace.

Mi WEB 100 % GNU/Linux: www.vigovideo.es
La energía no se crea ni se destruye, sólo se cobra... :D

+1
0
-1

Mi web : www.vigovideo.es
Buscar es más rápido que esperar una respuesta.

Imagen de volgar
+1
0
-1

Saludos .
Ante todo decir que yo no quiero volver a ubuntu el problema es que instalé ubuntu y ahora no veo nada!! .. por eso pido AYUDA .¿ o si no para que esta el foro ? .
Gabriel_M muchas gracias por el comentario y por el del Mozilla Firefox me has ayudado vastante muchas gracias.
Pero ese tampoco me funciona! Nose que puedo hacer :S .
El winff ya lo he probado pero no está el mpeg-2 .
Y el wlm o algo asi PIERDE mucha calidad de video .
Gracias.

+1
0
-1
Imagen de furtaxi
+1
0
-1

Y hablar de usar Windows como solución, no creo que sea la mejor.

Bien, el ffmpeg de los repositorios, está algo limitado, ya que algunos códecs han sido retirados por no ser libres (o sea, que usarlos le puede dar problemas a Canonical)

Debes añadir los repositorios medibuntu, que son algo más flexibles en éste aspecto, y te recomiendo, aunque es bastante laborioso, compilar el ffmpeg. Con paciencia.

http://ubuntuforums.org/showthread.php?t=786095

Mi WEB 100 % GNU/Linux: www.vigovideo.es
La energía no se crea ni se destruye, sólo se cobra... :D

+1
0
-1

Mi web : www.vigovideo.es
Buscar es más rápido que esperar una respuesta.

Imagen de firefoxmola
+1
0
-1

Tienes la ultima version de FFMPEG y de WinFF? Y todos los codecs necesarios? Yo uso ubuntu 9.04 y mi version de WinFF es la 1.2 puedes bajarla de aqui:

http://www.winff.org

Mi version de FFMPEG es 3:0.svn20090303-1

Cuando ejecutes WinFF 1.2 veras una opcion para convertir video a formato PS3 asi que no deberias tener ningun problema.
Saludos

+1
0
-1
Imagen de gruñi2
+1
0
-1

La psp también lee mp4, supongo que la PS3 también. Puedes probar con Avidemux, es gráfico y está en los repositorios.
Pero recuerda que has de ñadir los repositorios medibuntu, como te indica furtaxi para ampliar los formatos que Avidemux es capaz de tratar.
Saludos.

+1
0
-1

Saludos.

Imagen de volgar
+1
0
-1

Saludos.
Probé con el programa y a la hora de convertir que me abre un terminal me pone esto :

FFmpeg version SVN-r19352-4:0.5+svn20090706-2ubuntu2, Copyright (c) 2000-2009 Fabrice Bellard, et al.
  configuration: --extra-version=4:0.5+svn20090706-2ubuntu2 --prefix=/usr --enable-avfilter --enable-avfilter-lavf --enable-vdpau --enable-bzlib --enable-libgsm --enable-libschroedinger --enable-libspeex --enable-libtheora --enable-libvorbis --enable-pthreads --enable-zlib --disable-stripping --disable-vhook --enable-gpl --enable-postproc --enable-swscale --enable-x11grab --enable-libdc1394 --extra-cflags=-I/build/buildd/ffmpeg-0.5+svn20090706/debian/include --enable-shared --disable-static
  libavutil     49.15. 0 / 49.15. 0
  libavcodec    52.20. 0 / 52.20. 0
  libavformat   52.31. 0 / 52.31. 0
  libavdevice   52. 1. 0 / 52. 1. 0
  libavfilter    0. 4. 0 /  0. 4. 0
  libswscale     0. 7. 1 /  0. 7. 1
  libpostproc   51. 2. 0 / 51. 2. 0
  built on Oct 13 2009 22:15:16, gcc: 4.4.1
Input #0, avi, from '/home/volgar/Videos/La Niñera Magica.avi':
  Duration: 01:32:31.88, start: 0.000000, bitrate: 1057 kb/s
    Stream #0.0: Video: mpeg4, yuv420p, 608x256 [PAR 1:1 DAR 19:8], 25 tbr, 25 tbn, 25 tbc
    Stream #0.1: Audio: mp3, 48000 Hz, stereo, s16, 128 kb/s
Unknown encoder 'libfaac'
Pulse entrar para continuar.

He pulsado Enter pero se me cierra y no me hace nada más..
Gracias.

+1
0
-1
Imagen de furtaxi
+1
0
-1

Instalar medibuntu, compilar ffmepg...

Mi WEB 100 % GNU/Linux: www.vigovideo.es
La energía no se crea ni se destruye, sólo se cobra... :D

+1
0
-1

Mi web : www.vigovideo.es
Buscar es más rápido que esperar una respuesta.

Imagen de volgar
+1
0
-1

Saludos .
Puedes espicificarte un poco más? .
Que es eso de medibuntu y lo de compilar ffmpeg?
Gracias

+1
0
-1
Imagen de furtaxi
+1
0
-1

Tienes el link para compilar ffmpeg. Repito, ten paciencia, es bastante tedioso.

Y medibuntu... lo tienes en preguntas frecuentes. Empieza con él, puede que te sea suficiente.

Recuerda reinstalar , al final de todo, winff, para que asuma el nuevo ffmpeg.

Mi WEB 100 % GNU/Linux: www.vigovideo.es
La energía no se crea ni se destruye, sólo se cobra... :D

+1
0
-1

Mi web : www.vigovideo.es
Buscar es más rápido que esperar una respuesta.

Imagen de volgar
+1
0
-1

Saludos .
Sin paso a paso nose que tengo que hacer.. :S .
Gracias

+1
0
-1
Imagen de furtaxi
+1
0
-1

Haz lo que dice en multimedia.

Para medibuntu:

http://lamaquinadiferencial.wordpress.com/2009/10/29/como-anadir-medibun...

Mi WEB 100 % GNU/Linux: www.vigovideo.es
La energía no se crea ni se destruye, sólo se cobra... :D

+1
0
-1

Mi web : www.vigovideo.es
Buscar es más rápido que esperar una respuesta.

Imagen de volgar
+1
0
-1

Saludos .
Me ha servido lo que tardó una noche ..
Gracias

+1
0
-1