Como pasar de .ogg a .avi sin perder calidad

Imagen de oitaven
0 puntos

Hola a todos.
Intentando pasar un vídeo .ogg a .avi me encontré con el comando:

mencoder archivo.ogg -ovc lavc -oac mp3lame -o archivo.avi

pero la calidad era penosa. Investigando conseguí mejorar el comando:

mencoder archivo.ogg -ovc lavc -lavcopts vbitrate=**** -oac mp3lame -lameopts cbr br=*** -o archivo.avi

-lavcopts vbitrate=**** define el bitrate de video en kbits
-lameopts cbr indica que el bitrate de audio sea constante y br=*** define ese valor en kbits
para tener una idea de los valores a introducir en lugar de los asteriscos se puede usar ffmpeg

ffmpeg -i archivo.ogg

al final nos saldrá algo como esto:

Input #0, ogg, from 'archivo.ogg':
  Duration: 00:03:53.68, start: 0.000000, bitrate: 13248 kb/s
    Stream #0.0: Video: theora, yuv420p, 720x576, PAR 1066666:1000000 DAR 533333:400000, 25 tbr, 25 tbn, 25 tbc
    Stream #0.1: Audio: vorbis, 48000 Hz, stereo, s16, 128 kb/s

de aquí sacamos el bitrate del archivo 13248 kb/s y el de audio 128 kb/s

ATENCIÓN: el bitrate del archivo es la suma del bitrate de video más el de audio, con lo que para averiguar el bitrate de vídeo habrá que hacer una sencilla resta. Así, el comando anterior para este ejemplo quedaría:

mencoder archivo.ogg -ovc lavc -lavcopts vbitrate=13120 -oac mp3lame -lameopts cbr br=128 -o archivo.avi
Imagen de MaMaCa
+1
0
-1

Gracias oitaven, estaba buscando esa información, en mi caso se trata de un video echo a partir de imagenes estáticas y efectos con Cinelerra, quedó con una calidad espectacular, pero al convertirlo a avi para pasarlo por el Avidemux quedó muy muy pobre de calidad.
No sé si se puede renderizar en CInelerra a mpg, seguí por alli unos consejos renderizando a "m2v" pero me quedó de un archivo de 125mb uno de 13"Gb"
Lo tuyo me soluciona mi dilema. Gracias de nuevo.

Por cierto si alguién sabe como renderizar en CInelerra a "mpg" y salga "algo potable" estaría buenísimo lo comente.
Gracias a todos

+1
0
-1

Mario.Uy
Usuario Linux # 487502
Usuario Ubuntu # 26679

Imagen de chakal33
+1
0
-1

Muchas gracias por la información oitaven
quedó muy bien la transformación

+1
0
-1

Soy el que Nunca Aprendio

Desde que nacio...

COMO DEBE VIVIIIIIIIR EL HUMANO

Llegue tarde al sistema ya estaba enchufado asi funcionandoooooo