Error en extraer Audio de un video [Resuelto]

Imagen de homar
0 puntos

Hola foreros

Aqui con una consulta tengo instalado Xubuntu 12.04 y estoy tratando de extraer el sonido de un video para aumentarlo pero le doy el siguiente comando.

avconv -i archivosalida.avi -vn -ar 44100 -ac 2 -ab 192 -f mp3 audio.mp3
avconv version 0.8.6-4:0.8.6-0ubuntu0.12.04.1, Copyright (c) 2000-2013 the Libav developers
built on Apr 2 2013 17:00:59 with gcc 4.6.3
Input #0, avi, from 'archivosalida.avi':
Metadata:
encoder : MEncoder svn r34540 (Ubuntu), built with gcc-4.6
Duration: 00:00:12.93, start: 0.000000, bitrate: 19146 kb/s
Stream #0.0: Video: mjpeg, yuv420p, 1280x1024, 15 tbr, 15 tbn, 15 tbc
Stream #0.1: Audio: pcm_s16le, 23984 Hz, 2 channels, s16, 767 kb/s
File 'audio.mp3' already exists. Overwrite ? [y/N] y
Output #0, mp3, to 'audio.mp3':
Metadata:
encoder : MEncoder svn r34540 (Ubuntu), built with gcc-4.6
Stream #0.0: Audio: [0][0][0][0] / 0x0000, 44100 Hz, 2 channels, s16, 200 kb/s
Stream mapping:
Stream #0:1 -> #0:0 (pcm_s16le -> ?)
Encoder (codec id 0) not found for output stream #0:0

me da ese error general el nombre del archivo de salida pero esta vacío.

Imagen de Jose Luis 1320
+1
0
-1

Instala los ubuntu-restricted-extras e intenta de nuevo.

+1
0
-1

"Yo sólo se que no se nada"
-Sócrates, filósofo griego.
-Normas del foro

Imagen de homar
+1
0
-1

Disculpa la tardanza he estado algo ocupado pero el ubuntu-restricted-extras si lo tengo instalado.

+1
0
-1
Imagen de .doc
+1
0
-1

si eres estudioso de la consola, revisa ese mandato que introduces: a lo mejor hay algo no idóneo. Yo te puedo decir otro (necesitas tener instalado mplayer). Este:
mplayer -vo null -dumpaudio -dumpfile /«archivo-de-audio-que-se-extraera» /«video-del-cual-sacaras-el-audio».avi
Pero si quieres hacerlo de otra forma, te aseguro que con Avidemux es muy cómodo, y fácil.

+1
0
-1
Imagen de homar
+1
0
-1

Gracias por tu comentario si es cierto con avidemux es mucho mas facil. solo que me da errores como que hay que encontrar una buena combinación con el comando que me diste tambien funcionó yo le puse .mp3 de un video .avi pero genera un video que lo trato de abrir con parole o con gmusicbrowser pero dice que no se puede identificar el flujo.

+1
0
-1
Imagen de homar
+1
0
-1

Gracias a todos creo que aunque todavia tengo dudas sobre errores que salen creo que esta en su mayoría resuelto.

+1
0
-1
Imagen de Jose Luis 1320
+1
0
-1

Debes decir como lo hiciste, para formar parte de esta comunidad y sobre todo contribuir, de otra manera solo estarías aquí por un "soporte técnico gratuito".

+1
0
-1

"Yo sólo se que no se nada"
-Sócrates, filósofo griego.
-Normas del foro