No puedo utilizar WinFF porque me sale error

Hola muy buenas a tod@s.

Comentar que ates de nada, ya he intentado buscarme las castañas por mi cuenta y a través de un conocido, pero no encontramos ninguna solución a mi problema.

Mi SO es Ubuntu Studio 13.04.

Resulta que tengo vídeos en formato .MTS, con una resolución de FullHD de 1.920X1.080 a 50 fotogramas por segundo con sonido 5.1, para después poder editarlo con Cinelerra (el cual no puede leer el formato original).

He intentado utilizar otros trascodificadores como Arista trascode, OggComvert, Trasmageddon, pero no me resuelven el problema del vídeo (que es lo que me importa ya que el sonido lo puedo extraer con Audacity) ya que me lo trascodifican a otros formatos que o bien no me lee correctamente Cinelerra o me lo pasa a 25 fotogramas por segundo (y no se ve nada bien).

Juan Luis Fernández Gallo (http://www.youtube.com/user/jen0f0nte) me esta intentando ayudar con el problema pero por el momento no sabemos que es lo que ocurre, debido a esto y a que no encuentro información en la red, acudo a vosotros por si por favor podríais ayudarme.

Este es el error que me sale en una ventana de terminal al utilizar WinFF incluso con otros formatos como .MOV.

WARNING: gnome-keyring:: couldn't connect to:
/run/user/nma/keyring-6j6Evu/pkcs11: No such file or directory
avconv version 0.8.6-6:0.8.6-1ubuntu2, Copyright (c) 2000-2013 the
Libav developers
built on Mar 30 2013 22:23:21 with gcc 4.7.2
*[mpegts @ 0x87d30e0] max_analyze_duration reached*
Input #0, mov,mp4,m4a,3gp,3g2,mj2, from
'/home/X/Vídeos/Propios/Naturaleza medio-ambiental/Originales/Video
programas/Hola y bienbenidos a Naturaleza medio-ambiental.MOV':
Metadata:
major_brand : qt
minor_version : 537331968
compatible_brands: qt niko
creation_time : 2012-04-12 16:52:40
Duration: 00:00:12.27, start: 0.000000, bitrate: 8503 kb/s
Stream #0.0(eng): Video: h264 (Main), yuvj420p, 1280x720 [PAR 1:1
DAR 16:9], 8210 kb/s, 29.97 fps, 29.97 tbr, 30k tbn, 59.94 tbc
Metadata:
creation_time : 2012-04-12 16:52:40
Stream #0.1(eng): Audio: aac, 48000 Hz, stereo, s16, 128 kb/s
Metadata:
creation_time : 2012-04-12 16:52:40
*Incompatible pixel format 'yuvj420p' for codec 'dnxhd',
auto-selecting format 'yuv422p'*
[buffer @ 0x9c3b060] w:1280 h:720 pixfmt:yuvj420p
[avsink @ 0x9c525a0] auto-inserting filter 'auto-inserted scaler 0'
between the filter 'src' and the filter 'out'
[scale @ 0x9c38b20] w:1280 h:720 fmt:yuvj420p -> w:1280 h:720
fmt:yuv422p flags:0x4
*[dnxhd @ 0x9c385a0] video parameters incompatible with DNxHD*
Output #0, mov, to '/home/nma/Hola y bienbenidos a Naturaleza
medio-ambiental.mov':
Metadata:
major_brand : qt
minor_version : 537331968
compatible_brands: qt niko
creation_time : 2012-04-12 16:52:40
Stream #0.0(eng): Video: dnxhd, yuv422p, 1280x720 [PAR 1:1 DAR
16:9], q=2-31, 185000 kb/s, 90k tbn, 29.97 tbc
Metadata:
creation_time : 2012-04-12 16:52:40
Stream #0.1(eng): Audio: [0][0][0][0] / 0x0000, 48000 Hz, stereo,
s16, 200 kb/s
Metadata:
creation_time : 2012-04-12 16:52:40
Stream mapping:
Stream #0:0 -> #0:0 (h264 -> dnxhd)
Stream #0:1 -> #0:1 (aac -> pcm_s16be)
*Error while opening encoder for output stream #0:0 - maybe incorrect
parameters such as bit_rate, rate, width or height*
Pulse Entrar para continuar.

Por favor ¿Alguien sabría decirme que es lo que me ocurre?

Muchísimas gracias por todo.

Un saludo y que tengas un buen día.

Imagen de Kuyo
+1
+1
-1

¿a qué formato y parámetros preseleccionados estás tratando de convertirlo? ¿Has probado convertirlo a otros formatos?

+1
+1
-1
Imagen de Naturaleza medio-ambiental
+1
0
-1

Estoy intentando pasarlo de formato .MTS a .mp4 pero con la misma resolución y mínima perdida de calidad de imagen (o otro que pueda editarlo Cinelerra).

Como he expuesto anteriormente, lo e intentado cambiar a varios formatos sin que pueda obtener nada fructífero de ello, he aquí un ejemplo que expongo en Drobox https://www.dropbox.com/s/j28rqsvphqthuxb/Videograbaci%C3%B3n%202013-09-... de lo queme ocurre al intentar reproducir el archivo .MTS y al intentar pasarlo a .mp4.

+1
0
-1
Imagen de Kuyo
+1
0
-1

Hola
¿podrías poner en tu dropbox un fragmento de uno de los archivos .mts par que lo pueda descargar y probar en mi pc? Es extraño lo que te sucede.

+1
0
-1
Imagen de Naturaleza medio-ambiental
+1
0
-1

Gracias por la preocupación, por supuesto aquí muestro un ejemplo:

https://www.dropbox.com/s/qw3lv1ckzffhoac/00020.MTS

+1
0
-1
Imagen de Kuyo
+1
0
-1

Hola
La versión de WinFF que viene con 13.04 trae nativamente una opción para convertir a mp4? Lo pregunto porque mi versión -instalada en 12.04- no trae nativamente una opción preset para convertir a mp4, para hacerlo hay que instalar unos presets adicionales desde la página de google code.
¿Cuál es tu caso?

+1
0
-1
Imagen de Kuyo
+1
0
-1

El sistema no me permitió editar mi comentario, así que allí va de nuevo
La versión de WinFF que viene con 13.04 trae nativamente una opción para convertir a mp4? Entiendo que es la 1.5 beta. Lo pregunto porque mi versión -instalada en 12.04- no trae nativamente una opción preset para convertir a mp4, para hacerlo hay que instalar unos presets adicionales desde la página de google code. Podría ser que esa versión específica tenga un bug que te esté dando ese problema o, si instalaste los presets manualmente, podría ser asunto de la configuración de los presets descargados.
¿Has pensado en la posibilidad de descargarte la última versión de WinFF y compilarla?
Suerte

+1
0
-1
Imagen de Naturaleza medio-ambiental
+1
0
-1

Por lo que he podido entender en la pagina de WinFF, la version expuesta en el Centro de SoftWare de Ubuntu es la mas actualizada.

Utilizo un preset que alguien configuro para la edición de vídeo en Cinelerra mas informacion en el siguiente enlace (este chico es el que me a intentado echarme una mano pero estamos estancados) http://unade25.blogspot.com.es/2013/03/software-linux-winff-codificacion...

Por otra parte comentar que es indiferente al formato que utilice que no me deja cambiarlo.

Con OpenShot me dice tambien lo que comente anteriormente, que no es mas que me indica de que no tengo permisos para editar en mi propio disco duro...

+1
0
-1
Imagen de teenwood32
+1
+1
-1

tienes todos los codes instalados
el paquete de medibuntu y los extras-restricted ??

si es asi entonces intenta un

sudo apt-get install winff -y --reinstall
o
sudo apt-get revove winff --purge

y vuelve a instalar y seguido esto:

sudo apt-get install winff -y
sudo apt-get install -f
sudo apt-get upgrade

y rebice en los foros de winff oficial ahi hay mucha información

Saludos y esperemos y tu problema se solucione.

+1
+1
-1
Imagen de Naturaleza medio-ambiental
+1
0
-1

Tengo todos los codecs que ofrece el centro de software de ubuntu por defecto en Ubuntu Studio 13.04, intentare instalar los de mediabuntu, pese a que en otro ordenador con Ubuntu 13.04 (No Studio) me los reproduce igualmente y sin problemas (tambien he intentado recodificarlo con este y no puedo por 2 razones:

1º - La primera vez que intente recodificarlo no me lo recodifico. Dijo que acavo el proceso pero no salia el video en ninguna parte.
2º - Me sale una ventana de error con el siguiente texto "Access violation.

Press OK to ignore and risk data corruption.
Press Cancel to kill the program."

+1
0
-1
Imagen de Naturaleza medio-ambiental
+1
0
-1

Medibuntu ya no esta operativo en su web ¿Que alternativa a esta puede haber para que pueda combertir mis videos? http://www.medibuntu.org/

+1
0
-1
Imagen de teenwood32
+1
+1
-1

cambia medibuntu por el de videolan

No mas medibuntu ahora videolan

+1
+1
-1
Imagen de Naturaleza medio-ambiental
+1
0
-1

Muchas gracias, lo he podido instalar correctamente, sin embargo sigo con el dichoso problema.

+1
0
-1
Imagen de teenwood32
+1
0
-1

otra alternativa es Openshot, que bien no es un Transcoder ni convertidor de formatos pero te servirá de igual manera, tiene muchas opciones de salida para exportar, auto o manual...

Lo encuentras en el Software Center o en terminal con un

sudo apt-get install openshot -y
+1
0
-1
Imagen de Naturaleza medio-ambiental
+1
0
-1

Lo intente con Open pero no me deja porque me dice el siguiente texto:

No tiene permisos para escribir en la carpeta seleccionada, elija otra ubicación.

Esto me ocurre no solo con este sofware sino también a la hora de copiar archivos en varias ocasiones.

Por el momento intento instalar medibuntu, pero no puedo porque no encuentra la pagina, iré probando.

+1
0
-1
Imagen de gledof
+1
0
-1

desde una consola? El comando para hacerlo es avconv AQUI encontraras mas informacion.

+1
0
-1

Saludos.----

Imagen de Naturaleza medio-ambiental
+1
0
-1

Esto es lo que me dice si sigo dicho tutorial:

sudo apt-get install avconv
Leyendo lista de paquetes... Hecho
Creando árbol de dependencias
Leyendo la información de estado... Hecho
E: No se ha podido localizar el paquete avconv

+1
0
-1
Imagen de Goyo
+1
0
-1

Creo que el tutorial está mal en esa parte. No existe el paquete avconv en ninguna de las versiones soportadas de Ubuntu y seguramente nunca ha existido. El paquete necesario es (en raring) libav-tools y ya lo tienes instalado. El resto del tutorial supongo que está bien.

+1
0
-1
Imagen de Gabriel_M
+1
0
-1

... se utiliza con el comando
ffmpeg

+1
0
-1
Imagen de Naturaleza medio-ambiental
+1
0
-1

Hola Gabriel.

No comprendo si lo dices para avconv o para otro sofware, pero te agradecería encarecidamente si no te supiera mucha molestia que me pudieras concretar mejor tu respuesta.

+1
0
-1
Imagen de Gabriel_M
+1
0
-1

$ avconv
ffmpeg version 1.2.3 Copyright (c) 2000-2013 the FFmpeg developers
  built on Aug 27 2013 10:38:09 with gcc 4.8 (Debian 4.8.1-9)
  configuration: --prefix=/usr --extra-cflags='-g -O2 -fstack-protector --param=ssp-buffer-size=4 -Wformat -Werror=format-security ' --extra-ldflags='-Wl,-z,relro' --cc='ccache cc' --enable-shared --enable-libmp3lame --enable-gpl --enable-nonfree --enable-libvorbis --enable-pthreads --enable-libfaac --enable-libxvid --enable-postproc --enable-x11grab --enable-libgsm --enable-libtheora --enable-libopencore-amrnb --enable-libopencore-amrwb --enable-libx264 --enable-libspeex --enable-nonfree --disable-stripping --enable-libvpx --enable-libschroedinger --disable-encoder=libschroedinger --enable-version3 --enable-libopenjpeg --enable-librtmp --enable-avfilter --enable-libfreetype --enable-libvo-aacenc --disable-decoder=amrnb --enable-libvo-amrwbenc --enable-libaacplus --libdir=/usr/lib/i386-linux-gnu --disable-vda --enable-libbluray --enable-libcdio --enable-gnutls --enable-frei0r --enable-openssl --enable-libass --enable-libopus --enable-fontconfig --enable-libpulse --disable-mips32r2 --disable-mipsdspr1 --disab  libavutil      52. 18.100 / 52. 18.100
  libavcodec     54. 92.100 / 54. 92.100
  libavformat    54. 63.104 / 54. 63.104
  libavdevice    54.  3.103 / 54.  3.103
  libavfilter     3. 42.103 /  3. 42.103
  libswscale      2.  2.100 /  2.  2.100
  libswresample   0. 17.102 /  0. 17.102
  libpostproc    52.  2.100 / 52.  2.100
Hyper fast Audio and Video encoder
usage: ffmpeg [options] [[infile options] -i infile]... {[outfile options] outfile}...

Use -h to get full help or, even better, run 'man ffmpeg'
+1
0
-1
Imagen de Goyo
+1
+1
-1

En raring es diferente:

$ avconv
avconv version 0.8.6-6:0.8.6-1ubuntu2, Copyright (c) 2000-2013 the Libav developers
  built on Mar 30 2013 22:20:06 with gcc 4.7.2
Hyper fast Audio and Video encoder
usage: avconv [options] [[infile options] -i infile]... {[outfile options] outfile}...

Este culebrón de ffmpeg/libav nos va a volver locos.

+1
+1
-1
Imagen de Naturaleza medio-ambiental
+1
0
-1

Perdon, pero me he perdido ¿Que representa esa linea de código?¿Puede ser la solución a mi problema? De ser así ¿Que he de realizar para solventarlo?

+1
0
-1
Imagen de Goyo
+1
+1
-1

???
Representa la ejecución de avconv sin ningún parámetro. No puede ser la solución a tu problema porque tu problema parece ser precisamente dar con los parámetros adecuados.

Yo no sé cuál es la solución, estoy convencido de que todo este lío de los formatos multimedia lo inventó el diablo para empujar a la gente a la desesperación. Los parámetros que propone rioport me hen servido para convertir tu muestra a un archivo .mov en raring, aunque totem me dice que no encuentra un decodificador para reproducir el audio.

+1
+1
-1
Imagen de Goyo
+1
+1
-1

Con VLC lo he convertido a mp4 sin ningún problema.

+1
+1
-1
Imagen de Naturaleza medio-ambiental
+1
0
-1

¿Hablas del reproductor VLC?
¿Lo as podido convertir a 25 o a 50 pixeles por segundo (el formato original es a 50)?
¿Pierde mucha calidad de imagen?

Buscare algún manual para que pueda editarlo si te refieres al reproductor.

+1
0
-1
Imagen de Goyo
+1
0
-1

¿Qué otro VLC hay?
Lo puedo convertir a cualquier tasa de fotogramas (supongo que te refieres a eso con lo de "pixeles por segundo") y la calidad lógicamente depende de la tasa de bits.

+1
0
-1
Imagen de Naturaleza medio-ambiental
+1
0
-1

No sabia que el reproductor VLC podia cambiar a otros formatos.

He buscado en Internet para saber como puedo hacerlo y bueno lo he intentado sin que me saliera nada fructífero.

¿Como lo as podido hacer para que te salga bien la conversión del vídeo en formato .MTS?

+1
0
-1
Imagen de Goyo
+1
0
-1

Con el perfil "Video - H.264 + MP3 (MP4)" que viene ya predefinido. En raring con la versión de https://launchpad.net/~videolan/+archive/stable-daily aunque no creo que eso sea importante.

+1
0
-1
Imagen de Naturaleza medio-ambiental
+1
-1
-1

Lo intente tal y como me comentas y no me dio ningún resultado positivo, ya que lo único que obtuve era que me surgiera una ventana de error.

He ahi el motivo de preguntarte como lo hiciste.

+1
-1
-1
Imagen de rioport
+1
+1
-1

En Debian Wheezy, usando Winff 1.4.2 de los repositorios oficiales, ffmpeg 1.0.8 de los repositorios de deb-multimedia, y los presets "Cinelerra4Grandma.wff" que están en la página que indicaste no hay ningún problema a la hora de convertir el vídeo que pusiste en DropBox usando el preset "DNxHD 1080p/25". Eso sí, de 11 megas que pesaba pasó a 171MiB, pero ahora sí se puede cargar en Cinelerra-cv 2.2 . En un rato que pueda lo pruebo en Ubuntu 12.04 que tengo olvidado.

+1
+1
-1

-- GC --

Imagen de Naturaleza medio-ambiental
+1
-1
-1

Funcionar se que funciona, pero ami no me realiza ninguna acción, con o sin ese preset e incluso indiferentemente del formato original que desee convertirlo a otro.

+1
-1
-1
Imagen de rioport
+1
+1
-1

En Ubuntu 12.04 tampoco hay ningún problema. La linea de comando usada por Winff para convertir el vídeo fue:

avconv -y -i "/home/usuario/Downloads/00020.MTS" -b 185M -vcodec dnxhd -acodec pcm_s16be "/home/usuario/00020.mov"

y la salida fue:

avconv version 0.8.6-4:0.8.6-0ubuntu0.12.04.1, Copyright (c) 2000-2013 the Libav developers
  built on Apr  2 2013 17:02:36 with gcc 4.6.3
Input #0, mpegts, from '/home/falm/Downloads/00020.MTS':
  Duration: 00:00:03.83, start: 1.000011, bitrate: 25804 kb/s
  Program 1 
    Stream #0.0[0x1011]: Video: h264 (High), yuv420p, 1920x1080 [PAR 1:1 DAR 16:9], 50 fps, 50 tbr, 90k tbn, 100 tbc
    Stream #0.1[0x1100]: Audio: ac3, 48000 Hz, 5.1, s16, 448 kb/s
    Stream #0.2[0x1200]: Data: [144][0][0][0] / 0x0090
Incompatible pixel format 'yuv420p' for codec 'dnxhd', auto-selecting format 'yuv422p'
[buffer @ 0x2542ce0] w:1920 h:1080 pixfmt:yuv420p
[avsink @ 0x2527880] auto-inserting filter 'auto-inserted scaler 0' between the filter 'src' and the filter 'out'
[scale @ 0x251f240] w:1920 h:1080 fmt:yuv420p -> w:1920 h:1080 fmt:yuv422p flags:0x4
Output #0, mov, to '/home/usuario/00020.mov':
  Metadata:
    encoder         : Lavf53.21.1
    Stream #0.0: Video: dnxhd, yuv422p, 1920x1080 [PAR 1:1 DAR 16:9], q=2-31, 185000 kb/s, 50 tbn, 50 tbc
    Stream #0.1: Audio: pcm_s16be, 48000 Hz, 5.1, s16, 4608 kb/s
Stream mapping:
  Stream #0:0 -> #0:0 (h264 -> dnxhd)
  Stream #0:1 -> #0:1 (ac3 -> pcm_s16be)
Press ctrl-c to stop encoding
frame=  192 fps= 16 q=1.0 Lsize=  174195kB time=3.84 bitrate=371614.9kbits/s    
video:172032kB audio:2160kB global headers:0kB muxing overhead 0.001439%

¿Has intentado convertir el vídeo que subiste? ¿cuál fue el error?. Porque en el ejemplo que pones el video es de 1280x720 y el que subiste es de 1920x1080. El problema en la salida que pones al principio es:

*[dnxhd @ 0x9c385a0] video parameters incompatible with DNxHD*

Y como puedes ver aquí el formato DNxHD tiene requisitos muy específicos, en tu caso el problema parece estar en el bitrate.

+1
+1
-1

-- GC --

Imagen de Naturaleza medio-ambiental
+1
0
-1

El herror que me sale exactamente con los videos en calidad FullHD a 50p con sonido 5.1 (es decir el vieo que tengo alojado en Drobox es el siguiente.

Ordenador con Ubuntu Studio 13.04
WARNING: gnome-keyring:: couldn't connect to: /run/user/nma/keyring-CDdpfu/pkcs11: No such file or directory
avconv version 0.8.6-6:0.8.6-1ubuntu2, Copyright (c) 2000-2013 the Libav developers
built on Mar 30 2013 22:23:21 with gcc 4.7.2
[mpegts @ 0x84b80e0] max_analyze_duration reached
Input #0, mpegts, from '/home/nma/Vídeos/Propios/Naturaleza medio-ambiental/Originales/Visitas/Gobierno de las Islas Baleares/Dias mundial forestal/Dia mundial forestal 21-03-2013/05 Punto Alfa, Prevencion de incendios forestales.MTS':
Duration: 00:12:23.62, start: 1.000033, bitrate: 5579 kb/s
Program 1
Stream #0.0[0x1011]: Video: h264 (High), yuv420p, 1440x1080 [PAR 4:3 DAR 16:9], 50 fps, 50 tbr, 90k tbn, 50 tbc
Stream #0.1[0x1100]: Audio: ac3, 48000 Hz, 5.1, s16, 448 kb/s
Stream #0.2[0x1200]: Subtitle: pgssub
Incompatible pixel format 'yuv420p' for codec 'dnxhd', auto-selecting format 'yuv422p'
[buffer @ 0x84c2600] w:1440 h:1080 pixfmt:yuv420p
[avsink @ 0x84c23a0] auto-inserting filter 'auto-inserted scaler 0' between the filter 'src' and the filter 'out'
[scale @ 0x84c45a0] w:1440 h:1080 fmt:yuv420p -> w:1440 h:1080 fmt:yuv422p flags:0x4
[dnxhd @ 0x84bfe60] video parameters incompatible with DNxHD
Output #0, mov, to '/home/nma/Editores de Video/Trascodificadores/Winff/05 Punto Alfa, Prevencion de incendios forestales.mov':
Stream #0.0: Video: dnxhd, yuv422p, 1440x1080 [PAR 4:3 DAR 16:9], q=2-31, 185000 kb/s, 90k tbn, 50 tbc
Stream #0.1: Audio: [0][0][0][0] / 0x0000, 48000 Hz, 5.1, s16, 200 kb/s
Stream mapping:
Stream #0:0 -> #0:0 (h264 -> dnxhd)
Stream #0:1 -> #0:1 (ac3 -> pcm_s16be)
Error while opening encoder for output stream #0:0 - maybe incorrect parameters such as bit_rate, rate, width or height
Pulse Entrar para continuar.

Ordenador con Ubuntu Desktop 13.04
avconv version 0.8.6-6:0.8.6-1ubuntu2, Copyright (c) 2000-2013 the Libav developers
built on Mar 30 2013 22:23:21 with gcc 4.7.2
Input #0, mpegts, from '/home/nam/Dropbox/Public/00020.MTS':
Duration: 00:00:03.83, start: 1.000011, bitrate: 25804 kb/s
Program 1
Stream #0.0[0x1011]: Video: h264 (High), yuv420p, 1920x1080 [PAR 1:1 DAR 16:9], 50 fps, 50 tbr, 90k tbn, 100 tbc
Stream #0.1[0x1100]: Audio: ac3, 48000 Hz, 5.1, s16, 448 kb/s
Stream #0.2[0x1200]: Data: [144][0][0][0] / 0x0090
[buffer @ 0x9c16160] w:1920 h:1080 pixfmt:yuv420p
Output #0, crc, to '/home/nam/00020.':
Metadata:
encoder : Lavf53.21.1
Stream #0.0: Video: rawvideo, yuv420p, 1920x1080 [PAR 1:1 DAR 16:9], q=2-31, 200 kb/s, 90k tbn, 50 tbc
Stream #0.1: Audio: pcm_s16le, 48000 Hz, 5.1, s16, 4608 kb/s
Stream mapping:
Stream #0:0 -> #0:0 (h264 -> rawvideo)
Stream #0:1 -> #0:1 (ac3 -> pcm_s16le)
Press ctrl-c to stop encoding
frame= 192 fps= 26 q=0.0 Lsize= 0kB time=3.84 bitrate= 0.0kbits/s
video:583200kB audio:2160kB global headers:0kB muxing overhead -99.999997%
Pulse Entrar para continuar.

Pero me lo combierte mal de tal forma que el unico archivo que me da se puede leer con el Editor de textos y dice lo siguiente:
CRC=0xc9a7c064

Sobre bitrate (no se lo que es exactemente pero por lo que he podido leer en wikipedia es la velocidad de trasferencia de datos entre 2 equipos digitales, si me equivoco por favor pasa me una URL para que pueda leerlo y comprendedlo mejor) no creo que sea este el problema, porque antes de que hubiera formateado mi disco duro ya me funcionaba, es ahora cuando recientemente instalo Ubuntu 13.04 sea este Studio o Desktop, cuando no me va bien, con lo que el tema del harware no solo es el mismo sino que ademas he utilizado otro, es decir 2 ordenadores diferentes.

+1
0
-1
Imagen de rioport
+1
+1
-1

Mentira, el vídeo que usas de ejemplo en Ubuntu Studio no es el mismo que en la versión Ubuntu Desktop.

El vídeo que tratas de convertir en Ubuntu Studio tiene una resolución no admitida por el formato DNxHD, ¿Revisaste el enlace que puse?. Para que sea compatible tienes que "rellenar" el vídeo para que la resolución horizontal sea de 1920 (actualmente es de 1440), prueba con:

avconv -i "/home/nma/Vídeos/Propios/Naturaleza medio-ambiental/Originales/Visitas/Gobierno de las Islas Baleares/Dias mundial forestal/Dia mundial forestal 21-03-2013/05 Punto Alfa, Prevencion de incendios forestales.MTS" -vf pad=1920:1080:240:0 -b 185M -vcodec dnxhd -acodec pcm_s16be /home/nma/Ejemplo.mov

En el segundo tienes un problema con la tasa de bits (gracias Goyo), ya que la salida de ffmpeg indica que pides que sea de 200kb/s, algo muy muy bajo para esa resolución de vídeo. Con este deberías probar lo siguiente:

avconv -i "/home/nam/Dropbox/Public/00020.MTS" -b 185M -vcodec dnxhd -acodec pcm_s16be "/home/nam/Ejemplo2.mov"
+1
+1
-1

-- GC --

Imagen de Naturaleza medio-ambiental
+1
-1
-1

Bueno eso de mentira no lo comparto, dado que el problema que tengo es real. Independientemente de este echo, me acabas de hacer ver una cosa que no me percate antes y es que no están todos los vídeos en la calidad que creí configurar en un inicio.
Cierto es que el vídeo que puse de ejemplo esta en una resolución diferente al de otros que tengo y que estoy también interesado en poder pasarlos a otros formatos para poder editarlos con Cinelerra. Aun así no puedo pasarlo a otros formatos con WinFF u otros programas sin que o bien me baje notablemente la calidad de imagen o me cambie otras cosas. Expongo un ejemplo con WinFF https://dl.dropboxusercontent.com/u/80742822/Videograbaci%C3%B3n%20sobre...
Lo que me as mostrado en el enlace (no entiendo ni papa lo que expone en ese enlace, ya que mi nivel de informática es usuario) no veo la resolución de 1440X1080 en la tabla que sale y supongo que debes referirte que al no poder, así que el tema de "rellenar" no se como puedo hacerlo para que pueda funcionar me en cualquier decodificador.

La cuestión es de que quisiera saber como puedo pasarlo a otro formato compatible con Cinelerra y con la mínima perdida de prestaciones posibles, el audio me es indiferente porque lo puedo extraer con Audacity pero mi problema es el vídeo.

Muchas gracias.

+1
-1
-1
Imagen de rioport
+1
0
-1

Te puse dos ejemplos para convertir los vídeos en mi anterior comentario, ¿te convence la calidad del vídeo?

+1
0
-1

-- GC --

Imagen de Naturaleza medio-ambiental
+1
0
-1

Antes de nada volver a comentar que mi nivel de informática es muy básico y que no tenia constancia de que ese código debía de introducirlo en el Terminal.

Si, me lo a trasformado a otro formato, pero a pasado a pesar de 518,7MB en formato .MTS a 34,5Gb en formato .mov. El archivo es tan grande que no me deja reproducirlo (y seguro que menos editarlo) con lo que no se si me lo a trasformado del todo correcto, pero la realidad es que el cambio de formato se a efectuado.

¿Existe la posibilidad de reducir el tamaño del vídeo sin que pierda mucha calidad para que así pueda editarlo (ya que ni siquiera puedo reproducirlo)?

Muchas gracias por vuestra dedicación y paciencia que estáis teniendo para ayudarme a solventar mi problema.

+1
0
-1
Imagen de Goyo
+1
+1
-1

Intenta bajar la tasa de bits.

+1
+1
-1
Imagen de rioport
+1
+1
-1

Pero como te dije antes ese formato es muy quisquilloso y lo mínimo que acepta es 36Mbps, en la linea de comando que te puse anterior cambia el 185M por 36M y espera a que convierta unos segundos del vídeo, lo detienes con las teclas CTRL+C y revisa si te convence la calidad. En caso de que sí te convenza vuelve a ejecutar el mismo comando (con el 36M) y ahora sí déjalo terminar.

+1
+1
-1

-- GC --

Imagen de Naturaleza medio-ambiental
+1
0
-1

Siento la demora, pero no puedo conectarme periódicamente.

Efectivamente, ahora puedo reproducir el archivo trascodificado, el problema es que no me ocurre con todos los vídeos que intento trascodificarlos a .mov, concreta mente esto es lo que me indica:

nma@nma-DDE-EVyA:~$ avconv -i "/home/nma/Vídeos/Propios/Naturaleza medio-ambiental/Originales/Visitas/Gobierno de las Islas Baleares/Dias mundial forestal/Dia mundial forestal 21-03-2013/06 Punto Bravo, Sanidad forestal 01.MTS" -vf pad=1920:1080:240:0 -b 36M -vcodec dnxhd -acodec pcm_s16be "/home/nma/Editores de Video/Editores/06 Punto Bravo, Sanidad forestal 001.mov"
WARNING: gnome-keyring:: couldn't connect to: /run/user/nma/keyring-433Ndn/pkcs11: No such file or directory
avconv version 0.8.6-6:0.8.6-1ubuntu2, Copyright (c) 2000-2013 the Libav developers
built on Mar 30 2013 22:23:21 with gcc 4.7.2
[mpegts @ 0x876d0e0] max_analyze_duration reached
Input #0, mpegts, from '/home/nma/Vídeos/Propios/Naturaleza medio-ambiental/Originales/Visitas/Gobierno de las Islas Baleares/Dias mundial forestal/Dia mundial forestal 21-03-2013/06 Punto Bravo, Sanidad forestal 01.MTS':
Duration: 00:08:15.59, start: 1.000033, bitrate: 6033 kb/s
Program 1
Stream #0.0[0x1011]: Video: h264 (High), yuv420p, 1440x1080 [PAR 4:3 DAR 16:9], 50 fps, 50 tbr, 90k tbn, 50 tbc
Stream #0.1[0x1100]: Audio: ac3, 48000 Hz, 5.1, s16, 448 kb/s
Stream #0.2[0x1200]: Subtitle: pgssub
Incompatible pixel format 'yuv420p' for codec 'dnxhd', auto-selecting format 'yuv422p'
[buffer @ 0x877ce00] w:1440 h:1080 pixfmt:yuv420p
[pad @ 0x877c680] auto-inserting filter 'auto-inserted scaler 0' between the filter 'src' and the filter 'Parsed filter 0 pad'
[scale @ 0x8775740] w:1440 h:1080 fmt:yuv420p -> w:1440 h:1080 fmt:yuv422p flags:0x4
[pad @ 0x877c680] w:1440 h:1080 -> w:1920 h:1080 x:240 y:0 color:0x108080FF[yuva]
Output #0, mov, to '/home/nma/Editores de Video/Editores/06 Punto Bravo, Sanidad forestal 001.mov':
Metadata:
encoder : Lavf53.21.1
Stream #0.0: Video: dnxhd, yuv422p, 1920x1080 [PAR 4:3 DAR 64:27], q=2-31, 36000 kb/s, 50 tbn, 50 tbc
Stream #0.1: Audio: pcm_s16be, 48000 Hz, 5.1, s16, 4608 kb/s
Stream mapping:
Stream #0:0 -> #0:0 (h264 -> dnxhd)
Stream #0:1 -> #0:1 (ac3 -> pcm_s16be)
Press ctrl-c to stop encoding
picture could not fit ratecontrol constraints, increase qmaxe=79945.5kbits/s dup=1583 drop=0
Video encoding failed
nma@nma-DDE-EVyA:~$

¿Que puedo hacer para solventar esto?

Nuevamente muchas gracias.

+1
0
-1
Imagen de rioport
+1
0
-1

Dice que el vídeo necesita un bitrate más alto, revisa el enlace que te pasé en comentarios anteriores e intenta con alguno de los que indican ahí.

+1
0
-1

-- GC --

Imagen de furtaxi
+1
0
-1

Para mí, el mejor conversor que se ha hecho.
Eso sí, no trae por defecto todos los paquetes, así que hay que pelearse bastante para que funcione.

Las instrucciones están en su página, haz todo lo que recomiendan.

http://ekd.tuxfamily.org/

+1
0
-1

Mi web : www.vigovideo.es
Buscar es más rápido que esperar una respuesta.

Imagen de cuentos
+1
0
-1

te sirve como esto:
lo pongo en otro hilo

+1
0
-1

(recordatorio) -+-+-+-+-+-+-+-+-+-+-+-+-+-+-+-+-+-+-+-+-+-+-+-
Si el problema se soluciono, edita el 1° hilo, y agrega (Solucionado), para tener el foro mas ordenado.
Y finaliza poniendo la solución para que sirva para otros Usuarios.
Twitter @mcuentos