convertir de 3gp a avi / mpeg

Imagen de sitositos
0 puntos

Hola a todos, resulta que para hacer eso utilizaba el "mobile media converter" en el mismo linux, lo hacia bien, pero la calidad no me resultava muy buena. Decidi por utilizar el ffmpeg, pero al utilizarlo
ffmpeg -i Vídeo005.3gp -acodec mp3 -vcodec xvid -b 687 pelicula.avi

me sale esto:
Input #0, mov,mp4,m4a,3gp,3g2,mj2, from 'Vídeo005.3gp':
Duration: 00:02:50.9, start: 0.000000, bitrate: 2052 kb/s
Stream #0.0(eng): Video: mpeg4, yuv420p, 640x480, 15.00 fps(r)
Stream #0.1(eng): Audio: samr / 0x726D6173, 8000 Hz, mono
Unknown codec 'xvid'

k puedo hacer? un saludo y gracias de antemano.

Imagen de furtaxi
+1
0
-1

Yo, para estas conversiones, uso el VLC, lo tienes disponibles en synaptics.

De todas maneras, si te fijas en la última línea 

Unknown codec 'xvid'

es que no tienes instalado el XVID, una alternativa al divx.

Como no he utilizado el ffmpeg, no conozco su sintaxis, pero, claramente, debes cambiar

ffmpeg -i Vídeo005.3gp -acodec mp3 -vcodec xvid -b 687 pelicula.avi

por algo así (consulta el manual, recuerda que no conozco el tema):

 ffmpeg -i Vídeo005.3gp -acodec mp3 -vcodec (divx) (opciones) pelicula.avi

Lógicamente, deberías instalar primero divx, o, puedes tambien usar el formato de salida como mpg, o el que creas conveniente.

Pero prueba el VLC, es algo complicadilo de configurar, pero me dá buenos resultados. (la opción que debes usar, es "transcodificar")

Saludos,

Roberto.

Errar es humano, y yo soy muy humano...

Mi página personal: www.vigonews.es

+1
0
-1

Mi web : www.vigovideo.es
Buscar es más rápido que esperar una respuesta.