ffmpeg: problema con codec gsm_ms

Imagen de linux_padawan
0 puntos

hola amigos
quiero convertir un video .avi a uno .mpg o mpeg para poder grabarlo en un proyecto de video con K3b.
uso ffmpeg para esto pero con este video me sale un error en el input stream #0.1 correspondiente al codec gsm_ms.
me entro la curiosidad y lo trate de abrir en el vlc el totem y el media player y con ninguno puede escuchar el sonido.
(en windows el archivo me funciona bien con el windows-media)

cualquier ayuda es altamente apreciada.

gracias
P.D.: si hay otro metodos para grabarlo en un VCD o DVD, favor indicarlo. gracias

esto es el mensaje que me aparece luego del ffmpeg:

usuario1@usuario1-laptop:~$ ffmpeg -i /media/disk/MyDocs/video.avi ~/Escritorio/video1.mpg
FFmpeg version SVN-rUNKNOWN, Copyright (c) 2000-2007 Fabrice Bellard, et al.
  configuration: --enable-gpl --enable-pp --enable-swscaler --enable-pthreads --enable-libvorbis --enable-libtheora --enable-libogg --enable-libgsm --enable-dc1394 --disable-debug --enable-shared --prefix=/usr
  libavutil version: 1d.49.3.0
  libavcodec version: 1d.51.38.0
  libavformat version: 1d.51.10.0
  built on Mar 12 2008 15:36:03, gcc: 4.2.3 (Ubuntu 4.2.3-2ubuntu4)
Input #0, avi, from '/media/disk/MyDocs/video.avi':
  Duration: 03:20:39.4, start: 0.000000, bitrate: 431 kb/s
  Stream #0.0: Video: mpeg4, yuv420p, 300x220, 25.00 fps(r)
  Stream #0.1: Audio: gsm_ms, 44100 Hz, mono, 71 kb/s
Output #0, mpeg, to '/home/usuario1/Escritorio/video1.mpg':
  Stream #0.0: Video: mpeg1video, yuv420p, 300x220, q=2-31, 200 kb/s, 25.00 fps(c)
  Stream #0.1: Audio: mp2, 44100 Hz, mono, 64 kb/s
Stream mapping:
  Stream #0.0 -> #0.0
  Stream #0.1 -> #0.1
Error while opening codec for input stream #0.1
usuario1@usuario1-laptop:~$
Imagen de furtaxi
+1
0
-1

Te falte el soporte completo multimedia. haz ésto:

http://www.tuxapuntes.com/tux/content/view/551/86/

Mi WEB 100 % GNU/Linux: www.vigovideo.es
¡ Atención ! Contestar con casco de seguridad, a ésta firma, se le caen letras... :)
Recuerda buscar antes de preguntar, o regalarnos un servidor nuevo.

+1
0
-1

Mi web : www.vigovideo.es
Buscar es más rápido que esperar una respuesta.